#TITLE:Nageki no Ki;
#SUBTITLE:Dead Master;
#ARTIST:Kinjishi;
#TITLETRANSLIT:;
#SUBTITLETRANSLIT:;
#ARTISTTRANSLIT:;
#CREDIT:;
#BANNER:nageki.jpg;
#BACKGROUND:nageki-bg.jpg;
#LYRICSPATH:;
#CDTITLE:nageki.png;
#MUSIC:Nageki no Ki.ogg;
#OFFSET:0.000;
#SAMPLESTART:76.520;
#SAMPLELENGTH:12.000;
#SELECTABLE:YES;
#DISPLAYBPM:160.000;
#BPMS:0.000=160.001,324.000=80.000,324.438=420.000;
#STOPS:;
#BGCHANGES:;
// cache tags:
#FIRSTBEAT:13.750;
#LASTBEAT:333.750;
#SONGFILENAME:Songs/sdf/Nageki no Ki/nageki.sm;
#HASMUSIC:1;
#HASBANNER:1;
#MUSICLENGTH:130.500;
// end cache tags

//---------------dance-single - ----------------
#NOTES:
     dance-single:
     :
     Hard:
     27:
     1.000,1.000,1.000,0.874,1.000,1004.000,391.000,114.000,0.000,215.000:
0000
0000
0000
0000
,
0000
0000
0000
0000
,
0000
0000
0000
0000
,
0000
0000
0000
0000
,
0000
0000
0000
0000
,
0000
0000
0000
0000
,
0000
0000
0000
0000
,
0010
0000
0000
0100
0000
0000
1000
0000
0000
0001
0000
0000
1000
0000
0000
0000
0000
0000
0001
0000
0010
0000
0100
0000
2022
0000
0000
0000
0000
0000
0000
0000
0000
0000
0000
0000
3033
0000
0000
0000
0000
0000
0000
0000
0000
1000
0000
0000
,
0010
0000
0000
0100
0000
0000
0001
0000
0000
1000
0000
0000
0010
0000
0000
0000
0000
0000
0001
0000
0010
0000
0100
0000
1000
0000
0000
0100
0000
0000
0010
0000
0000
1000
0000
0000
0001
0000
0000
0100
0000
0000
0001
0000
0000
0100
0000
0000
,
0001
0000
0000
0000
0000
0000
1000
0000
0010
0000
0100
0000
0001
0000
0000
0000
0000
0000
0000
0000
0000
0000
0000
0000
1000
0000
0000
0010
0000
0000
0100
0000
0000
0001
0000
0000
1000
0000
0000
0010
0000
0000
0100
0000
0000
0010
0000
0000
,
1000
0010
0100
0001
1000
0010
0100
0010
1000
0010
0100
0001
1000
0010
0100
0010
,
1001
0010
0100
0001
1100
0010
0100
0010
1001
0010
0100
0001
1100
0010
0100
0010
,
1001
0010
0100
0001
1100
0010
0100
0010
1001
0010
0100
0001
1100
0010
0100
0010
,
1001
0010
0100
0001
1100
0010
0100
0010
1001
0010
0100
0001
1100
0010
0100
0010
,
1001
0010
0100
0001
1100
0010
0100
0010
1001
0010
0100
0001
1100
0010
0101
0010
,
1101
0010
0100
0011
1100
0011
0100
0010
1100
0010
0100
0001
1100
0010
0101
0010
,
1001
0010
1100
0001
1100
0010
0101
0010
1100
0010
0101
0001
1100
0010
0101
0010
,
1001
0010
1100
0001
1100
0010
0101
0010
1100
0010
1101
0011
1100
0010
1101
0010
,
2021
0100
0001
0000
0100
0001
0100
3030
1202
0010
1000
0000
1000
0010
1000
0303
,
1120
0000
0100
0030
1201
0000
0010
0300
2011
0000
0010
3000
0211
0000
0321
0000
,
1001
0000
0001
0030
1201
0000
0321
0000
1132
0000
0100
0000
1213
0000
0321
0000
,
1100
0100
1001
0100
1100
0100
1001
0100
,
1100
0000
0100
0000
1001
0000
0100
0000
1001
0030
0100
0000
1010
0000
1102
0000
,
1100
0000
0100
0003
1120
0000
0031
0000
0110
0000
0210
0000
1010
0000
0001
0300
,
1021
0000
0130
0000
0112
0000
0213
0000
1010
0000
0010
0300
1021
0000
2030
0000
,
3211
2310
0111
0100
3112
0013
1121
0130
,
1001
0010
1100
0010
0001
0010
1100
0010
1002
0000
1000
0000
0000
0000
1003
0000
,
1001
0000
0101
0000
1110
0100
0011
0000
1100
0000
0110
0000
1110
0100
0011
0000
,
1001
0000
0101
0000
1110
0100
0011
0000
1100
0000
0110
0000
1110
0100
0011
0000
,
1001
0000
0011
0000
1110
0100
0011
0000
1100
0000
0110
0000
1110
0100
0011
0000
,
1100
0110
1110
0011
1100
0110
1101
1011
,
1001
0000
0101
0000
1110
0100
0011
0000
1100
0000
0110
0000
1110
0100
0011
0000
,
1001
0000
0101
0000
1110
0100
0011
0000
1100
0000
0110
0000
1110
0100
0011
0000
,
1001
0000
0011
0000
1110
0100
0011
0000
1100
0000
0110
0000
1110
0100
1011
0000
,
0100
1010
1010
0101
0100
1010
0101
1010
,
0111
1000
0101
1000
0011
1000
0101
1000
0111
1000
0101
1000
0011
1000
0101
1000
,
0111
1000
0101
1000
0011
1000
0101
1000
0111
1000
0101
1000
0011
1000
0011
1000
,
1011
0100
0011
0100
1001
0100
0011
0100
1011
0100
0011
0100
1001
0100
0011
0100
,
1011
0100
0011
0100
1001
0100
0011
0100
1011
0100
0011
0100
1001
0100
1011
0100
,
1011
0100
1010
0100
0011
0100
1010
0100
1011
0100
1010
0100
0011
0100
1010
0100
,
1110
0000
0000
0111
0000
0000
1110
0000
0111
0000
0000
1110
0000
0000
0111
0000
,
0000
1110
0000
0000
0111
0000
0000
1110
0000
0000
0111
0000
1110
0000
0111
0000
,
1002
0000
0000
0000
0000
0000
0000
0000
0100
0000
0000
0000
0000
0000
0000
0000
0010
0000
0000
0000
0000
0000
0000
0000
1000
0000
0000
0000
0000
0000
0000
0000
0100
0000
0000
0000
0000
0000
0000
0000
0010
0000
0000
0000
0000
0000
0000
0000
1000
0000
0000
0000
0000
0000
0000
0000
0100
0000
0000
0000
0000
0000
0000
0000
0010
0000
0000
0000
0000
0000
0000
0000
1000
0000
0000
0000
0000
0000
0000
0000
0100
0000
0000
0000
0000
0000
0000
0000
0010
0000
0000
0000
0000
0000
0000
0000
1000
0000
0000
0000
0000
0000
0000
0000
0100
0000
0000
0000
0000
0000
0000
0000
0013
0000
0000
0000
0000
0000
0000
0000
1000
0000
0000
0000
0000
0000
0000
0000
0100
0000
0000
0000
0000
0000
0000
0000
0010
0000
0000
0000
0000
0000
0000
0000
0001
0000
0000
0000
0000
0000
0010
0000
0000
0000
0000
0000
0100
0000
0000
0000
0000
0000
1000
0000
0000
0000
0000
0000
0001
0000
0000
0000
0000
0000
0010
0000
0000
0000
0000
0000
0100
0000
0000
0000
0000
0000
1000
0000
0000
0000
0000
0000
,
0121
0000
1000
0000
0201
0000
1300
1030
0102
0000
0010
0000
1200
0000
1300
1003
,
1120
0000
0001
0000
1002
0000
1003
1030
0211
0000
1000
0000
0011
0000
1000
0300
,
1021
0000
0100
0000
1002
0000
1003
1030
0112
0000
1000
0000
0120
0000
0130
0103
,
1021
0000
0100
0000
1002
0000
1003
1030
0211
0000
1000
0000
0011
0000
1001
0300
,
2112
0000
0020
0000
0230
0000
0323
3000
0202
0000
2030
0000
0320
0000
3200
0003
,
2332
0000
0020
0000
0233
0000
0320
0000
0232
0000
0023
0000
3002
0030
2013
0000
,
0311
0011
3101
0001
0111
0000
0000
0000
1100
1010
1001
1000
1110
0000
0000
0000
,
1001
0010
0100
1000
0101
0010
1100
0010
1001
0101
2022
0000
0000
0000
3133
0000
,
0121
0000
1000
0000
0201
0000
1300
1030
0102
0000
0010
0000
1200
0000
1300
1003
,
1120
0000
0001
0000
1002
0000
1003
1030
0211
0000
1000
0000
0011
0000
1000
0300
,
1021
0000
0100
0000
1002
0000
1003
1030
0112
0000
1000
0000
0120
0000
0130
0103
,
1021
0000
0100
0000
1002
0000
1003
1030
0211
0000
1000
0000
0011
0000
1001
0300
,
2112
0000
0020
0000
0230
0000
0323
3000
0202
0000
2030
0000
0320
0000
3200
0003
,
2332
0000
0020
0000
0233
0000
0320
0000
0232
0000
0023
0000
3002
0030
2013
0300
,
0011
0011
3101
0001
0222
0000
0000
0333
1100
1010
1001
1000
2220
0000
0000
3330
,
1001
0000
0000
0010
0001
0000
0100
0000
0010
1000
0000
0000
0101
0000
0000
0010
0001
0000
1100
0000
0001
0010
0000
0000
1001
0000
0000
0101
0000
0000
2101
0000
0010
0000
0000
0000
0101
0000
0000
3010
0001
0000
0100
0000
1000
0010
0000
0000
,
1100
0011
1100
0011
1100
0000
1100
0011
1100
0011
1100
0000
1100
0011
1100
0000
,
0110
1001
0110
1001
0110
0000
0110
1001
0110
1001
0110
0000
0110
1001
0110
0000
,
1100
0011
1100
0011
1100
0000
1100
0011
1100
0011
1100
0000
1100
0011
1100
0000
,
0110
1001
0110
1001
0110
0000
0110
1001
0110
1001
0110
0000
0111
1001
0110
0001
,
1110
0001
0110
0001
1110
0000
0110
0001
1110
0001
0110
0000
1110
0001
0110
0000
,
1011
0100
0011
0100
1011
0000
0011
0100
1011
0100
0011
0000
1011
0100
0011
0000
,
1110
0001
0110
0001
1110
0000
0110
0001
1110
0001
0110
0000
1110
0001
0110
0000
,
1011
0100
0011
0100
0011
0000
1011
0100
0011
0100
1011
0000
1100
1011
1100
1011
,
1000
0100
0010
0001
0010
0100
1000
0100
0010
0001
0010
0100
1000
0100
0010
0001
0010
0100
1000
0100
0010
0001
0010
0100
,
1000
0100
0010
0001
0010
0100
1000
0100
0010
0001
0010
0100
1000
0100
0010
0001
0010
0100
1000
0100
0010
0001
0010
0100
,
1000
0100
0010
0001
0010
0100
1000
0100
0010
0001
0010
0100
1000
0100
0010
0001
0010
0100
1000
0100
0010
0001
0010
0100
,
1000
0100
0010
0001
0010
0100
1000
0100
0010
0001
0010
0100
1000
0100
0010
0001
0010
0100
1000
0100
0010
0001
0010
0100
,
1000
0100
0010
0001
0010
0100
1000
0100
0010
0001
0010
0100
1000
0100
0010
0001
0010
0100
1000
0100
0010
0001
0010
0100
,
1001
0100
0010
0001
0010
0100
1000
0100
0010
0001
0010
0100
1001
0100
0010
0001
0010
0100
1000
0100
0010
0001
0010
0100
,
1001
0100
0010
0001
0010
0100
1000
0100
0010
0001
0010
0100
1001
0100
0010
0001
0010
0100
1000
0100
0010
0001
0010
0100
,
1001
0100
0010
0001
0010
0100
1000
0100
0010
0001
0010
0100
1001
0100
0010
0001
0010
0100
1000
0100
0010
0001
0010
0100
,
1001
0100
0010
0001
0010
0100
1000
0100
0010
0001
0010
0100
1001
0100
0010
0001
0010
0100
1000
0100
0010
1001
0010
0100
,
1001
0010
0100
1000
0100
0010
0001
0010
0100
1000
0100
0010
1001
0010
0100
1000
0100
0010
0001
0010
0100
1000
0010
0001
,
1110
0000
0001
0111
0000
0010
1110
0000
0111
0000
1000
1110
0000
0001
0111
0000
,
1000
1110
0000
0010
0111
0000
0100
1110
0000
0001
0111
0000
1110
0000
0111
0010
,
1002
0000
0000
0000
0000
0000
0000
0000
0100
0000
0000
0000
0000
0000
0000
0000
0010
0000
0000
0000
0000
0000
0000
0000
1000
0000
0000
0000
0000
0000
0000
0000
0100
0000
0000
0000
0000
0000
0000
0000
0010
0000
0000
0000
0000
0000
0000
0000
1000
0000
0000
0000
0000
0000
0000
0000
0100
0000
0000
0000
0000
0000
0000
0000
0010
0000
0000
0000
0000
0000
0000
0000
1000
0000
0000
0000
0000
0000
0000
0000
0100
0000
0000
0000
0000
0000
0000
0000
0010
0000
0000
0000
0000
0000
0000
0000
1000
0000
0000
0000
0000
0000
0000
0000
0100
0000
0000
0000
0000
0000
0000
0000
0013
0000
0000
0000
0000
0000
0000
0000
1000
0000
0000
0000
0000
0000
0000
0000
0100
0000
0000
0000
0000
0000
0000
0000
0010
0000
0000
0000
0000
0000
0000
0000
0001
0000
0000
0000
0000
0000
0010
0000
0000
0000
0000
0000
0100
0000
0000
0000
0000
0000
1000
0000
0000
0000
0000
0000
0001
0000
0000
0000
0000
0000
0010
0000
0000
0000
0000
0000
0100
0000
0000
0000
0000
0000
0000
0000
0000
0000
0000
0000
,
1011
1011
1011
1110
1110
1110
1100
1100
,
1111
2222
0000
0000
,
0000
0000
0000
0000
,
3333
0000
0000
0000
;

//---------------dance-single - ----------------
#NOTES:
     dance-single:
     :
     Medium:
     1:
     0.987,1.000,1.000,0.115,1.000,670.000,191.000,15.000,0.000,25.000:
0000
0000
0000
0000
,
0000
0000
0000
0000
,
0000
0000
0000
0000
,
0000
0000
0000
0000
0000
0000
0000
2000
0000
0000
0000
0000
0000
0000
0000
0000
,
0000
0000
0000
0000
,
0000
0000
0000
0000
0000
0000
0020
0000
0000
0000
0000
3000
0000
0000
0000
0000
,
0000
0000
0000
0000
0000
0000
0000
0000
0030
0020
0000
0000
0000
0000
0000
0030
,
0000
0000
0000
0100
0000
0001
0000
0000
0000
0001
1000
0001
0000
0000
0000
0100
,
0000
0010
0000
0110
0000
0001
0000
0000
0000
0010
0000
0100
0000
0010
0000
0010
,
0000
0000
0000
0000
1000
0000
0000
0001
0000
0001
0000
0100
0000
0010
0000
0010
,
0000
1000
0001
0000
0001
0000
0100
0010
0000
0001
0000
1000
0010
0000
0010
0000
,
0100
0001
0000
0101
0000
0000
1000
0010
0000
0010
0000
0100
0001
0000
0101
0000
,
0010
0000
1000
0010
0000
0010
0000
0100
0001
0000
0101
0000
0101
0000
0000
0010
,
0100
0010
0000
0100
0000
0010
0100
0010
0000
0110
0000
0100
0001
0000
0001
0100
,
0001
1000
0001
0000
0001
0000
0100
0010
0000
0010
0100
0001
0000
0010
0100
0010
,
0000
0100
0010
0000
0000
0000
1001
0000
0000
0011
0000
0000
0110
0000
0100
0001
,
0000
0010
0000
0110
0000
0100
0010
0000
0001
0000
1000
0010
0000
0010
0100
0000
,
0001
0000
0101
0000
0101
0010
0000
1000
0010
0000
0010
0100
0002
0000
0000
0013
,
0000
0100
0010
0100
0010
0000
0001
1000
0000
0001
0000
0001
0100
0001
0100
0000
,
0010
1000
0000
0001
0100
0001
0100
0000
1010
0000
0001
0000
0001
0100
0101
0000
,
0000
1010
0000
1001
0000
0001
0000
0000
0110
0000
0101
0000
0101
0000
1000
0010
,
0000
0101
0000
0101
0000
0000
0110
0000
2001
0000
0010
3100
0001
0100
0001
0000
,
1000
0010
0100
0001
0000
0101
0000
1010
0000
0001
0100
0000
0110
0000
1001
0000
,
0000
0110
0000
0101
0001
0100
0000
1010
0000
0000
0110
0000
0101
0000
0010
1000
,
0001
0100
0010
0000
0000
1001
0000
0110
0000
0000
1001
0000
0110
0000
0000
1001
,
0000
0110
0010
0000
0110
0000
0100
0001
0000
1001
0000
0001
0100
0010
0000
0101
,
0000
0001
1000
0010
0000
0010
0001
0010
0000
0000
0110
0000
0000
0110
0000
0011
,
0000
0100
0010
0100
0010
0000
0001
0000
0010
0000
0000
0101
0100
0010
0000
1001
,
0000
1001
0000
0000
1100
0010
0000
1001
0000
1001
0000
0000
0010
0100
0001
0000
,
1101
0001
0000
0000
0110
0000
0100
0001
0101
0000
0000
1101
0000
0010
0000
1110
,
0000
0000
0110
0100
0001
0000
0101
0101
0010
0000
0001
1010
0000
0011
0010
0100
,
0010
0100
0000
0001
0000
1001
0000
0110
0000
0110
0000
0101
0000
0000
0110
0000
,
0111
0010
0100
0010
0000
1100
0001
1100
0001
0100
0001
0100
0001
0111
0000
0000
,
0111
0010
0000
0010
1100
0000
0110
0000
0100
0011
0000
0111
0000
0111
0000
0111
,
0000
0010
0100
0010
1100
0110
1000
0000
0101
0000
0101
0000
0010
1000
0000
0101
,
0000
0110
0000
0011
1000
0000
0011
0000
0110
0000
0110
0000
0111
0000
0111
0000
,
0011
1000
0010
0000
0100
0010
1100
0110
0000
0110
0000
0101
0000
0000
0111
0000
,
0111
0000
0111
0000
0111
0000
0100
0000
0100
0011
0000
0111
0100
0011
0000
1110
,
0000
0110
0000
0110
0000
0110
0000
0000
0001
1000
0001
0000
0101
1000
1001
0000
,
0101
0000
0100
0001
0000
0110
0000
0111
0000
0101
0000
0000
0111
0000
0111
0011
,
0100
0000
1111
0000
0110
0000
0110
0000
0010
0100
0000
0001
1000
0001
1000
0010
,
0000
0111
0000
0000
0111
0000
0000
1011
0000
0110
1000
0000
1110
0000
0001
0010
,
0000
0100
1000
0120
0000
0000
0000
0000
0000
0000
0000
0000
0000
0000
0030
0000
,
0000
0011
0000
0100
1000
0110
0000
0010
0100
0010
0000
0100
0001
0000
0001
0100
,
0010
0000
1010
0000
0000
0010
0100
0001
0000
0101
0000
0010
0100
0010
0000
1000
,
0010
0100
0010
0000
0100
0010
0100
0010
0000
1000
0110
0000
0010
0000
0000
0011
,
0000
0100
0000
1000
0110
0000
0010
0000
0100
0010
0000
0110
0000
0010
0100
1000
,
0200
0000
0000
0000
0000
0000
0010
0300
0000
0010
0101
1000
0100
0010
0000
0010
,
0000
0000
0002
0000
0000
0000
0003
0010
0000
0010
0100
1000
0100
0010
0010
0000
,
0100
0000
1000
0100
0000
0200
0000
0000
0310
0000
0010
0100
0000
1000
0100
0000
,
0000
0010
0010
0000
0100
0010
0000
0110
0000
1000
0110
0000
0020
0000
0000
0000
,
0030
0100
0000
0010
0100
0010
0000
0001
0100
0000
0000
0001
0000
0000
0001
0000
,
0001
1000
0000
0010
0100
0010
0000
0110
0000
0000
0110
0000
0010
0000
0100
0001
,
0000
0001
1000
0000
0011
0000
0010
0100
0000
0010
0000
1000
0010
0000
0010
0000
,
0100
0010
0000
0110
0000
0110
0000
0000
1001
0000
0010
0000
0100
0010
0000
1000
,
0000
0200
0000
0000
0000
0000
0000
0310
0000
0000
0010
1001
0010
0100
0000
0100
,
0000
2000
0000
0000
0000
0000
0000
0000
0010
3000
0000
0011
0000
1100
0000
0200
,
0000
0000
0000
0310
0000
0011
0000
0000
0000
0011
0000
0011
0000
1000
0100
0000
,
0010
0000
0001
0010
0000
0000
1000
0100
0010
0000
0010
0000
0001
0010
0000
0010
,
0000
0100
0010
0000
0010
0000
0010
0000
0100
0000
0000
0001
0000
0001
0100
0000
,
0001
0000
0001
1000
0000
0010
0000
0010
0000
0010
0000
0010
0000
0000
0010
0000
,
0000
0100
0000
0001
0100
0001
0000
0001
0000
0001
0000
0001
0000
0001
0000
1000
,
0000
1000
0000
1000
0000
1000
0010
0000
0010
0000
0010
0000
0010
0000
0100
0000
,
0000
0101
0000
0000
0001
0001
0000
0100
0001
0000
0010
0000
0010
0000
0010
0000
,
0000
1000
0010
0000
0010
0000
0010
0000
0010
0000
0010
0000
0100
0000
0110
0000
,
0010
0001
0001
0001
1000
0010
0010
0010
,
1000
0010
0000
0010
0000
1000
0000
0000
0000
0001
0000
0001
1000
0000
0010
0000
,
0000
0011
0100
1000
0000
0110
0000
0000
0011
0100
0000
1000
0100
0010
0000
0001
,
0011
0010
0100
0000
1000
0100
0010
0001
0010
0000
0000
0011
0100
1000
0000
0100
,
0010
0000
0001
0010
0100
1001
0000
0100
0010
0000
0001
0010
0000
0100
1000
0000
,
0110
0000
0000
0011
0000
0001
0010
0100
1000
0110
0000
0001
0010
0000
0011
0000
,
0100
1000
0000
0100
0010
0000
0011
0000
0000
0011
0000
0100
1000
0100
0010
0000
,
0001
0010
0000
0011
0000
0100
0010
0000
0101
0000
0101
0000
0000
1010
0000
0001
,
0100
0010
0100
0001
0110
0000
0110
0000
1001
0000
1001
0000
0110
0000
0000
0101
,
0000
1001
0000
0000
0110
0000
0101
0000
1001
0000
0000
0110
0000
0100
0000
0110
,
0000
0001
1000
0001
0100
0110
0000
0001
1000
0001
0000
0110
0000
0101
0000
0001
,
1010
0000
0100
0010
0110
0000
0000
1001
0000
0101
0010
0000
0110
0000
1001
0000
,
0000
0110
0000
0110
0000
0001
1000
0001
0100
0010
0100
0001
0000
0010
0100
0010
,
0100
0010
0000
1000
0001
1000
0101
0000
0101
0000
0101
0000
0000
0010
0010
0000
,
0000
1000
0200
0000
0000
0000
0000
0000
0000
0000
0000
0000
0310
0000
0010
0000
,
0000
0001
0000
0000
0001
0100
0001
0100
0001
0000
1010
0000
1010
0100
0000
0000
,
0002
0000
0000
0000
,
0000
0000
0000
0000
,
0000
0000
0000
0000
0000
0000
0000
0003
0000
0000
0000
0000
0000
0000
0000
0000
;
